#TITLE:Judas;
#SUBTITLE:Expi3nze;
#ARTIST:Lady Gaga;
#TITLETRANSLIT:;
#SUBTITLETRANSLIT:;
#ARTISTTRANSLIT:;
#CREDIT:;
#BANNER:bn.png;
#BACKGROUND:bg.png;
#LYRICSPATH:;
#CDTITLE:cdtitle.png;
#MUSIC:Judas.mp3;
#OFFSET:-0.378;
#SAMPLESTART:65.874;
#SAMPLELENGTH:12.000;
#SELECTABLE:YES;
#BPMS:0.000=131.003,1.000=130.997,2.000=131.003,3.000=130.997,4.000=131.003,5.000=130.997,6.000=131.003,7.000=130.997,8.000=131.003,9.000=130.997,10.000=131.003,11.000=130.997,12.000=131.003,13.000=130.997,14.000=131.003,15.000=130.997,16.000=131.003,17.000=130.997,18.000=131.003,20.000=130.997,21.000=131.003,22.000=130.997,23.000=131.003,24.000=130.997,25.000=131.003,26.000=130.997,27.000=131.003,28.000=130.997,29.000=131.003,30.000=130.997,31.000=131.003,32.000=130.997,33.000=131.003,34.000=130.997,35.000=131.016,35.250=65.502,35.500=262.032,36.000=131.003,38.000=130.997,39.000=130.990,39.250=65.502,39.500=262.032,40.000=131.003,42.000=130.997,43.000=130.990,43.250=65.502,43.500=262.032,44.000=131.003,46.000=130.997,47.000=262.006,49.000=131.003,50.000=262.032,50.500=65.502,50.750=131.016,51.000=130.997,52.000=131.003,53.000=130.997,54.000=262.032,54.500=65.502,54.750=131.016,55.000=130.997,56.000=131.003,57.000=130.997,58.000=262.032,58.500=65.502,58.750=131.016,59.000=130.997,60.000=131.003,61.000=130.997,62.000=131.003,63.000=130.997,64.000=131.003,65.000=262.032,65.500=65.502,65.750=131.016,66.000=262.032,66.500=65.502,66.750=131.016,67.000=130.997,68.000=131.003,69.000=130.997,70.000=262.032,70.500=65.502,70.750=131.016,71.000=130.997,72.000=131.003,73.000=130.997,74.000=262.032,74.500=65.502,74.750=131.016,75.000=130.997,76.000=131.003,77.000=130.997,78.000=131.003,79.000=130.997,80.000=131.003,81.000=130.997,82.000=131.003,84.000=130.997,85.000=131.003,86.000=130.997,87.000=131.003,88.000=130.997,89.000=131.003,90.000=130.997,91.000=131.003,92.000=130.997,93.000=131.003,94.000=130.997,95.000=131.003,96.000=130.997,97.000=131.003,98.000=130.997,99.000=131.003,100.000=130.997,101.000=131.003,103.000=130.997,104.000=131.003,105.000=130.997,106.000=131.003,107.000=130.997,108.000=131.003,109.000=130.997,110.000=131.003,111.000=130.997,112.000=131.003,113.000=130.997,114.000=131.003,115.000=130.997,116.000=131.003,117.000=130.997,118.000=131.003,119.000=130.997,120.000=131.003,121.000=130.997,122.000=131.003,124.000=130.997,125.000=131.003,126.000=130.997,127.000=131.003,128.000=130.997,129.000=131.003,130.000=130.997,131.000=131.003,132.000=130.997,133.000=131.003,134.000=130.997,135.000=131.003,136.000=130.997,137.000=131.003,138.000=130.997,139.000=131.003,140.000=130.997,141.000=131.003,143.000=130.997,144.000=262.006,146.000=131.003,147.000=130.997,148.000=131.003,149.000=130.997,150.000=131.003,152.000=130.997,153.000=131.003,154.000=130.997,155.000=131.003,156.000=130.997,157.000=131.003,158.000=130.997,159.000=131.003,160.000=130.997,161.000=131.003,162.000=130.997,163.000=131.003,164.000=130.997,165.000=131.003,166.000=130.997,167.000=131.003,168.000=130.997,169.000=131.003,171.000=130.997,172.000=131.003,173.000=130.997,174.000=131.003,175.000=130.997,176.000=131.003,177.000=130.997,178.000=131.003,179.000=130.997,180.000=131.003,181.000=130.997,182.000=131.003,183.000=130.997,184.000=131.003,185.000=130.997,186.000=131.003,187.000=130.997,188.000=131.003,190.000=130.997,191.000=131.003,192.000=130.997,193.000=131.003,194.000=130.997,195.000=131.003,196.000=130.997,197.000=131.003,198.000=130.997,199.000=131.003,200.000=130.997,201.000=131.003,202.000=130.997,203.000=131.003,204.000=130.997,205.000=131.003,206.000=130.997,207.000=131.003,208.000=130.997,209.000=131.003,210.000=130.997,211.000=131.003,212.000=130.997,213.000=131.003,215.000=130.997,216.000=131.003,217.000=130.997,218.000=131.003,219.000=130.997,220.000=131.003,221.000=130.997,222.000=131.003,223.000=130.997,224.000=131.003,225.000=130.997,226.000=131.003,227.000=130.997,228.000=131.003,229.000=130.997,230.000=131.003,232.000=130.997,233.000=131.003,234.000=130.997,235.000=131.003,236.000=130.997,237.000=131.003,238.000=130.997,239.000=131.003,240.000=130.997,241.000=131.003,242.000=130.997,243.000=131.003,244.000=130.997,245.000=131.003,246.000=130.997,247.000=131.003,248.000=130.997,249.000=131.003,250.000=130.997,251.000=131.003,253.000=130.997,254.000=131.003,255.000=130.997,256.000=131.003,257.000=130.997,258.000=131.003,259.000=130.997,260.000=131.003,261.000=130.997,262.000=131.003,263.000=130.997,264.000=131.003,265.000=130.997,266.000=131.003,267.000=130.997,268.000=131.003,269.000=130.997,270.000=131.003,272.000=130.997,273.000=131.003,274.000=130.997,275.000=131.003,276.000=130.997,277.000=131.003,278.000=130.997,279.000=131.003,280.000=130.997,281.000=131.003,282.000=130.997,283.000=131.003,284.000=130.997,285.000=131.003,286.000=130.997,287.000=131.003,288.000=130.997,289.000=131.003,291.000=130.997,292.000=131.003,293.000=130.997,294.000=131.003,295.000=130.997,296.000=131.003,297.000=130.997,298.000=131.003,299.000=130.997,300.000=131.003,301.000=130.997,302.000=131.003,303.000=130.997,304.000=131.003,305.000=262.006,307.000=131.003,308.000=262.032,308.500=65.502,308.750=131.016,309.000=130.997,310.000=131.003,311.000=130.997,312.000=131.003,313.000=130.997,314.000=262.006,316.000=131.003,317.000=130.997,318.000=131.003,319.000=130.997,320.000=131.003,321.000=130.997,322.000=131.003,323.000=130.997,324.000=131.003,326.000=130.997,327.000=131.003,328.000=130.997,329.000=131.003,330.000=130.997,331.000=131.003,332.000=130.997,333.000=131.003,334.000=130.997,335.000=131.003,336.000=130.997,337.000=131.003,338.000=130.997,339.000=131.003,340.000=130.997,341.000=131.003,342.000=130.997,343.000=131.003,344.000=130.997,345.000=131.003,347.000=130.997,348.000=131.003,349.000=130.997,350.000=131.003,351.000=130.997,352.000=131.003,353.000=130.997,354.000=131.003,355.000=130.997,356.000=131.003,357.000=130.997,358.000=131.003,359.000=130.997,360.000=131.003,361.000=130.997,362.000=131.003,364.000=130.997,365.000=131.003,366.000=130.997,367.000=131.003,368.000=130.997,369.000=131.003,370.000=130.997,371.000=131.003,372.000=130.997,373.000=131.003,374.000=130.997,375.000=131.003,376.000=130.997,377.000=131.003,378.000=130.997,379.000=131.003,380.000=130.997,381.000=131.003,382.000=130.997,383.000=131.003,385.000=130.997,386.000=131.003,387.000=130.997,388.000=131.003,389.000=130.997,390.000=131.003,391.000=130.997,392.000=131.003,393.000=130.997,394.000=131.003,395.000=130.997,396.000=131.003,397.000=130.997,398.000=131.003,399.000=130.997,400.000=131.003,402.000=130.997;
#STOPS:;
#BGCHANGES:;
// cache tags:
#FIRSTBEAT:0.000;
#LASTBEAT:395.750;
#SONGFILENAME:Songs/SDO pack 3/Judas (Lady Gaga)/Judas.sm;
#HASMUSIC:1;
#HASBANNER:1;
#MUSICLENGTH:183.248;
// end cache tags

//---------------dance-single - ----------------
#NOTES:
     dance-single:
     :
     Hard:
     21:
     1.000,1.000,1.000,0.338,0.756,998.000,521.000,62.000,0.000,130.000:
2001
0001
0010
0001
3201
1000
1000
0001
0321
1000
1000
0100
1032
0010
0100
0010
,
2013
0000
0001
0010
0001
0001
0021
0100
3132
0010
0100
0010
0213
1000
1000
0001
,
2301
0010
0001
0010
0001
0001
0100
0100
0010
0100
0100
0001
0010
0100
0001
0010
,
3102
0010
1000
0100
1000
1000
0010
0010
0100
0010
0010
1000
0100
0010
1000
0100
,
2013
0001
0010
0001
3201
1000
1000
0001
0321
1000
1000
0100
1032
0010
0100
0010
,
2013
0100
0001
0010
0001
0001
0021
0100
3132
0010
0100
0010
0213
1000
1000
0001
,
2301
0010
0001
0010
0001
0001
0100
0100
0010
0100
0100
0001
0010
0100
0001
0010
,
3102
0010
1000
0100
1000
1000
0010
0010
0100
0010
0010
1000
1000
0100
1000
0100
,
2003
0000
3000
0000
0002
0000
0003
0000
0101
0000
0100
0200
0300
0200
0000
0000
,
2300
0000
3000
0000
0002
0000
0003
0000
0101
0000
0100
0200
0300
0200
0000
0000
,
2300
0000
3000
0000
0002
0000
0003
0000
0101
0000
0100
0200
0300
0200
0000
0000
,
2300
3000
0002
0003
0200
0320
2030
0000
,
0000
0000
0000
0000
3111
0000
0000
0000
0111
0000
0000
0000
0011
0000
1000
0100
,
1000
1000
0011
1000
0011
0000
1000
0000
1110
0000
0000
0000
0011
0000
1000
0100
,
1000
1000
0011
1000
0011
0000
1000
0000
1110
0000
0000
0000
0011
0000
0000
0000
,
1100
0000
1100
0000
0011
1001
1100
1000
0011
0110
0100
0000
0001
0011
0110
1100
,
0011
0110
1100
1000
0011
0000
0000
0000
1110
0000
0000
0000
0011
0000
1000
0100
,
1000
1000
0011
1000
0011
0000
1000
0000
1110
0000
0000
0000
0011
0000
1000
0100
,
1000
1000
0011
1000
0011
0000
1000
0000
1110
0000
0000
0000
0011
0000
0000
0000
,
1100
0000
0001
0101
1001
1100
1000
0010
1110
0000
1110
0000
0110
1100
1001
0011
,
0001
1100
1101
0000
1100
1001
0011
1100
,
1100
0000
0011
0100
1001
0000
1001
0000
1000
0000
0001
0000
0101
0000
1010
0000
,
0011
0000
0100
1000
0011
0000
1001
0000
1100
0000
0001
0000
1100
0000
0110
0000
,
0011
0000
0011
1000
1001
0000
1001
0000
1100
0000
0001
0000
0101
0000
1010
0000
,
0011
0000
1100
0001
1100
0000
0110
0000
0010
0000
1000
0000
0101
0000
1001
0000
,
1100
0000
0011
1000
1001
0000
1001
0000
1100
0000
1000
0000
0011
0000
1001
0000
,
1100
0000
0011
1000
0011
0000
1000
0000
1010
0000
1001
0000
0011
0000
0100
0000
,
1001
0000
1001
1000
0011
0000
0110
0000
1100
0000
1000
0000
0011
1001
1100
1001
,
0011
0110
0010
0000
1102
0000
0000
0000
1100
0000
0000
0000
2000
0000
3020
0000
,
0230
0300
2003
0000
0111
0000
0020
0032
,
0203
0000
0310
0010
3100
0000
0010
0000
0011
0000
0110
0000
1100
0000
1000
0000
,
0010
0010
0100
0000
0110
0000
0011
0000
0110
0000
1100
0000
0100
0000
0001
0000
,
0101
1001
1102
0000
1100
0000
2000
3020
,
0230
0300
2003
0000
0111
0000
0020
0032
,
0203
0000
0310
0010
3100
0000
0010
0000
0011
0000
0110
0000
1100
0000
1000
0000
,
0001
0001
0010
0000
0011
0000
1001
0000
1100
0000
1000
0000
0000
0000
0000
0000
,
1001
0000
0000
0000
1111
1100
1111
1100
,
1111
1100
1111
1100
1111
1001
1111
1001
,
1111
1001
1111
1001
1111
0110
1111
0110
,
1111
0110
1111
0110
1111
1001
1111
1001
,
1111
1001
1111
1001
1111
1100
1111
1100
,
1111
1100
1111
1100
1111
1001
1111
1001
,
1111
1001
1111
1001
1111
0110
1111
0110
,
1111
0110
1111
0110
1111
1001
1111
1001
,
1111
1001
1111
1000
1100
0110
0011
0110
,
1100
0110
0011
0110
1100
0100
0001
1001
,
1100
0110
0011
1100
1001
0011
0110
1000
,
0011
0000
1010
1010
0011
0110
1100
1000
,
0011
0000
1011
0001
1100
0110
0011
0110
,
1100
0110
0011
0110
1100
0100
0001
1001
,
1100
0110
0011
1100
1001
0011
0110
1000
,
0011
0000
1010
1010
0011
0110
1100
1000
,
0011
0000
0000
0000
1011
0000
0000
0000
1100
0000
0001
0010
0101
0000
0001
0010
,
0101
0000
0001
0010
1001
0100
1000
0001
0101
1000
0001
0010
0101
0000
0001
0010
,
0101
0000
0001
0010
1001
0100
1000
0001
0101
1000
0001
0010
0101
0000
0001
0010
,
0101
0000
0001
0010
0101
0000
0001
0010
0101
1010
1001
0011
0101
1000
0100
0010
,
0001
0110
1100
1001
0011
0100
1000
0010
1110
0000
0001
0010
0101
0000
0001
0010
,
0101
0000
0001
0010
1001
0100
1000
0001
0101
1000
0001
0010
0101
0000
0001
0010
,
0101
0000
0001
0010
1001
0100
1000
0001
0101
1000
0001
0010
0101
0000
0001
0010
,
0101
0000
0001
0010
0101
0000
0001
0010
0101
1010
1001
0011
0110
1100
0010
0001
,
0001
0000
0010
0110
1100
0010
0010
0000
0111
0000
1000
0100
1010
0000
1000
0100
,
1010
0000
1000
0010
1001
0010
0001
1000
1010
0001
1000
0100
1010
0000
1000
0100
,
1010
0000
1000
0010
1001
0010
0001
1000
1010
0001
1000
0100
1010
0000
1000
0100
,
1010
0000
1000
0100
1010
0000
1000
0100
1010
1001
0011
0110
1100
1000
0100
0010
,
0001
0000
1000
0100
0010
0001
0011
0110
0111
0000
1000
0100
1010
0000
1000
0100
,
1010
0000
1000
0010
1001
0010
0001
1000
1010
0001
1000
0100
1010
0000
1000
0100
,
1010
0000
1000
0010
1001
0010
0001
1000
1010
0001
1000
0100
1010
0000
1000
0100
,
1010
0000
1000
0100
1010
0000
1000
0100
1001
1001
1100
0110
0011
0010
0100
1000
,
0011
0000
0000
0000
0000
0000
0000
0000
1000
0000
0000
0000
0001
0000
0000
0000
0001
0000
0000
0000
0001
0000
0000
0000
2011
0000
0000
0000
0000
0000
0001
0000
0000
0010
0000
0000
0001
0000
0000
0001
0000
0000
0100
0000
0000
0010
0000
0000
,
0100
0010
0100
0100
0001
0010
0001
0001
3102
0010
0100
0010
0010
1000
0100
1000
,
1000
0010
0100
0010
0100
0010
1000
0100
2013
0100
0100
0001
0010
0100
0010
0001
,
0100
0010
0100
0100
0001
0001
0010
0001
3102
0010
1000
1000
0010
0100
0010
0010
,
1000
0100
1000
0010
0010
0100
0010
1000
1103
0110
0010
0100
1001
1001
0010
0001
,
1100
1100
0001
0101
1100
0011
0001
0100
1010
1001
0011
0100
1001
1001
0011
0100
,
1100
0110
0011
1000
1010
1001
0011
0100
1001
0101
1001
1100
1010
0011
0100
1000
,
0011
0011
0110
0001
0011
0110
1100
0001
0001
1001
1100
0010
0010
1000
1000
1000
,
0001
0011
0100
0001
0002
0000
0000
0000
0000
0000
0000
0000
1103
0000
0000
0000
,
0111
0000
0000
0000
0111
0000
0000
0000
1000
0000
0011
1000
0011
0000
0000
0000
,
2020
3230
0320
0030
,
1111
1100
1111
1100
1111
1100
1111
1100
,
1111
1001
1111
1001
1111
1001
1111
1001
,
1111
0110
1111
0110
1111
0110
1111
0110
,
1111
1001
1111
1001
1111
1001
1111
1001
,
1111
1100
1111
1100
1111
1100
1111
1100
,
1111
1001
1111
1001
1111
1001
1111
1001
,
1111
0110
1111
0110
1111
0110
1111
0110
,
1111
1001
1111
1001
1111
1001
1111
1000
,
1100
0110
0011
0110
1100
0110
0011
0110
,
1100
0100
0001
1001
1100
0110
0011
1100
,
1001
0011
0110
1000
0011
0000
1010
1010
,
0011
0110
1100
1000
0011
0000
1011
0001
,
1100
0110
0011
0110
1100
0110
0011
0110
,
1100
0100
0001
1001
1100
0110
0011
1100
,
1001
0011
0110
1000
0011
0000
1010
1010
,
0011
0110
1100
1000
0011
0000
1011
0000
,
1011
0000
0000
0000
1010
0000
0000
0000
0011
0000
1000
0100
1000
1000
0011
1000
,
0011
0000
1000
0000
1110
0000
0000
0000
0011
0000
1000
0100
1000
1000
0011
1000
,
0011
0000
1000
0000
1110
0000
0000
0000
0011
0000
1000
0100
1000
1000
0011
1000
,
1100
0110
1100
1001
0011
1001
1100
0000
0011
1001
1100
0110
1001
0101
0011
0001
,
0000
0000
0000
0000
,
0000
0000
0000
0000
,
0000
0000
0000
0000
,
0000
0000
0000
0000
,
0000
0000
0000
0000
,
0000
0000
0000
0000
,
0000
0000
0000
0000
,
0000
0000
0000
0000
;
